开启左侧

《江山如画-2018国庆音乐会》.20180930.1080i.CCTV1.HDTV.H.264.DD5.1-FLTTH.ts 7.80G

[复制链接]
96 1

  1. General
  2. ID                                       : 1 (0x1)
  3. Complete name                            : 江山如画.20180930.1080i.CCTV1.HDTV.H.264.DD5.1-FLTTH.ts
  4. Format                                   : MPEG-TS
  5. File size                                : 7.80 GiB
  6. Duration                                 : 1 h 19 min
  7. Overall bit rate mode                    : Variable
  8. Overall bit rate                         : 14.0 Mb/s

  9. Video
  10. ID                                       : 256 (0x100)
  11. Menu ID                                  : 1 (0x1)
  12. Format                                   : AVC
  13. Format/Info                              : Advanced Video Codec
  14. Format profile                           : High@L4.1
  15. Format settings                          : CABAC / 2 Ref Frames
  16. Format settings, CABAC                   : Yes
  17. Format settings, RefFrames               : 2 frames
  18. Codec ID                                 : 27
  19. Duration                                 : 1 h 19 min
  20. Bit rate mode                            : Variable
  21. Bit rate                                 : 12.8 Mb/s
  22. Maximum bit rate                         : 18.7 Mb/s
  23. Width                                    : 1 920 pixels
  24. Height                                   : 1 080 pixels
  25. Display aspect ratio                     : 16:9
  26. Frame rate                               : 25.000 FPS
  27. Color space                              : YUV
  28. Chroma subsampling                       : 4:2:0
  29. Bit depth                                : 8 bits
  30. Scan type                                : Interlaced
  31. Scan type, store method                  : Separated fields
  32. Scan order                               : Top Field First
  33. Bits/(Pixel*Frame)                       : 0.247
  34. Stream size                              : 7.16 GiB (92%)

  35. Audio
  36. ID                                       : 257 (0x101)
  37. Menu ID                                  : 1 (0x1)
  38. Format                                   : AC-3
  39. Format/Info                              : Audio Coding 3
  40. Codec ID                                 : 129
  41. Duration                                 : 1 h 19 min
  42. Bit rate mode                            : Constant
  43. Bit rate                                 : 448 kb/s
  44. Channel(s)                               : 6 channels
  45. Channel positions                        : Front: L C R, Side: L R, LFE
  46. Sampling rate                            : 48.0 kHz
  47. Frame rate                               : 31.250 FPS (1536 SPF)
  48. Bit depth                                : 16 bits
  49. Compression mode                         : Lossy
  50. Delay relative to video                  : -16 ms
  51. Stream size                              : 256 MiB (3%)
  52. Service kind                             : Complete Main

  53. Menu
  54. ID                                       : 4096 (0x1000)
  55. Menu ID                                  : 1 (0x1)
  56. Duration                                 : 1 h 19 min
  57. List                                     : 256 (0x100) (AVC) / 257 (0x101) (AC-3)
  58. Service name                             : CCTV1-HD
  59. Service provider                         : CCTV
  60. Service type                             : digital television

复制代码
节目简介:
    《江山如画-2018国庆音乐会》,节目内容聚焦主线,唱响时代主旋律,用歌曲表达对祖国眷恋之情,多角度的诠释对祖国生日的祝福,演出阵容强大,有陈思思、李克勤、周笔畅、袁娅维、薛伟、王弢等,让我们共赏江山如画,听盛世赞歌。

下载地址:
https://pan.baidu.com/s/1GSwVFcywbpHnuSAkD9L4zQ


本帖子中包含更多资源

您需要 登录 才可以下载或查看,没有帐号?立即注册  

x

举报

回复

1 个评论

您需要登录后才可以回帖 登录 | 立即注册  

本版积分规则

高清剧集推荐

更多

高清MV/综艺

更多

客服中心

400-800-8888 周一至周日 8:30-20:30 仅收市话费

关注我们

  • 手机客户端
  • 关注官方微信
关闭

站长推荐上一条 /1 下一条

关于我们
关于我们
友情链接
联系我们
帮助中心
网友中心
购买须知
支付方式
服务支持
资源下载
售后服务
定制流程
关注我们
官方微博
官方空间
官方微信
快速回复 返回顶部 返回列表