开启左侧

2018天猫双11狂欢夜.20181110.REPEAT.1080i.DRAGON.HDTV.H.264.DD5.1-FLTTH.ts 11.8G

[复制链接]
112 2
本帖最后由 福利发放鸡 于 2018-11-16 20:40 编辑

  1. General
  2. ID                                       : 1 (0x1)
  3. Complete name                            : 天猫双11狂欢夜.20181110.REPEAT.1080i.DRAGON.HDTV.H.264.DD5.1-FLTTH.ts
  4. Format                                   : MPEG-TS
  5. File size                                : 11.8 GiB
  6. Duration                                 : 3 h 50 min
  7. Overall bit rate mode                    : Variable
  8. Overall bit rate                         : 7 319 kb/s

  9. Video
  10. ID                                       : 256 (0x100)
  11. Menu ID                                  : 1 (0x1)
  12. Format                                   : AVC
  13. Format/Info                              : Advanced Video Codec
  14. Format profile                           : High@L4
  15. Format settings                          : CABAC / 2 Ref Frames
  16. Format settings, CABAC                   : Yes
  17. Format settings, RefFrames               : 2 frames
  18. Format settings, GOP                     : M=3, N=12
  19. Codec ID                                 : 27
  20. Duration                                 : 3 h 50 min
  21. Bit rate                                 : 6 311 kb/s
  22. Width                                    : 1 920 pixels
  23. Height                                   : 1 080 pixels
  24. Display aspect ratio                     : 16:9
  25. Frame rate                               : 25.000 FPS
  26. Color space                              : YUV
  27. Chroma subsampling                       : 4:2:0
  28. Bit depth                                : 8 bits
  29. Scan type                                : Interlaced
  30. Scan type, store method                  : Separated fields
  31. Scan order                               : Top Field First
  32. Bits/(Pixel*Frame)                       : 0.122
  33. Stream size                              : 10.2 GiB (86%)

  34. Audio
  35. ID                                       : 257 (0x101)
  36. Menu ID                                  : 1 (0x1)
  37. Format                                   : AC-3
  38. Format/Info                              : Audio Coding 3
  39. Codec ID                                 : 129
  40. Duration                                 : 3 h 50 min
  41. Bit rate mode                            : Constant
  42. Bit rate                                 : 640 kb/s
  43. Channel(s)                               : 6 channels
  44. Channel positions                        : Front: L C R, Side: L R, LFE
  45. Sampling rate                            : 48.0 kHz
  46. Frame rate                               : 31.250 FPS (1536 SPF)
  47. Bit depth                                : 16 bits
  48. Compression mode                         : Lossy
  49. Delay relative to video                  : -524 ms
  50. Stream size                              : 1.03 GiB (9%)
  51. Language                                 : English
  52. Service kind                             : Complete Main

  53. Menu
  54. ID                                       : 4096 (0x1000)
  55. Menu ID                                  : 1 (0x1)
  56. Duration                                 : 3 h 50 min
  57. List                                     : 256 (0x100) (AVC) / 257 (0x101) (AC-3, English)
  58. Language                                 :  / English
  59. Service name                             : DRAGON TV
  60. Service provider                         : BGCTV
  61. Service type                             : user defined

复制代码
节目简介:
    第十个天猫双11来了。10月19日,“天猫双11狂欢节”发布会在京举行,会上宣布易烊千玺、张杰、谢娜、米兰达•可儿、Angelababy、陈赫、罗志祥、王迅等明星将加盟天猫双11狂欢夜。晚会于11月10日晚在优酷、浙江卫视、东方卫视同步直播。
    作为连接文娱内容与新零售的“综艺新物种”,本届天猫双11狂欢夜引入剧情式综艺思路,以红、蓝两队明星对抗、逐一通关四座城市为故事主线,为观众带来一场娱乐盛宴,用户参与互动,还有机会获得终极大奖——1111份品牌大礼。
    19日的发布会上,天猫双11狂欢夜公布了首批艺人和整体构思。今年,作为阿里生态的内容旗舰,首次负责猫晚内容规划和制作的优酷拿出了“爆款综艺”式的解决方案,引入了剧情式综艺的编排方式,令人期待。
    晚会分为精彩、时光、合美、未来四大篇章。“精彩”篇以易烊千玺为代表,从“三小只”的青涩到如今在演艺事业上独挑大梁,易烊千玺近年来的成长大家有目共睹,此次又将带来怎样的精彩表现令人期待;“时光”篇的代表是张杰、谢娜,他们将与大家分享十年相伴的美好和快乐;“合美”篇的代表是超模米兰达•可儿,这是米兰达•可儿在中国荧幕的首秀,而国际艺人的加盟也象征着天猫双11狂欢节“世界融合”的责任和担当;“未来”篇的代表是Angelababy、陈赫、罗志祥、王迅,他们将和更多明星一起组成红蓝两个阵营,通过游戏、竞演等方式展开四场对抗,带领大家迎接未来的挑战,并用剧情式综艺的方式串联起整场晚会。
    跟随明星“红蓝对抗”的环节,整场晚会共有四次“红蓝对抗1元购”互动,进入这一环节时,用户可以打开手机天猫、淘宝、优酷APP,摇一摇进入互动,选择红队或者蓝队进行押宝,押宝正确的观众中将有机会获得1元购买好礼的资格,同时收集一把开启终极宝箱的钥匙。集齐4把钥匙的用户中,将产生一名终极赢家,获得由天猫超市和天猫国际官方直营联合提供的1111份大礼,由菜鸟负责承运到幸运儿家中。此外,还有笑脸大作战、跨屏抢豪礼、一首歌抢折扣等互动福利。

下载地址:

https://pan.baidu.com/s/1SJbK_NNVoYdY1COHLIgwtQ

本帖子中包含更多资源

您需要 登录 才可以下载或查看,没有帐号?立即注册  

x

举报

回复

2 个评论

您需要登录后才可以回帖 登录 | 立即注册  

本版积分规则

高清剧集推荐

更多

高清MV/综艺

更多

客服中心

400-800-8888 周一至周日 8:30-20:30 仅收市话费

关注我们

  • 手机客户端
  • 关注官方微信
关闭

站长推荐上一条 /1 下一条

关于我们
关于我们
友情链接
联系我们
帮助中心
网友中心
购买须知
支付方式
服务支持
资源下载
售后服务
定制流程
关注我们
官方微博
官方空间
官方微信
快速回复 返回顶部 返回列表