开启左侧

《2018众里寻你——寻找最美孝心少年颁奖典礼》.20181125.1080i.CCTV1.HDTV.H.264.DD5.1-FLTTH.ts 5.96G

[复制链接]
81 1

  1. General
  2. ID                                       : 1 (0x1)
  3. Complete name                            : 众里寻你.20181125.1080i.CCTV1.HDTV.H.264.DD5.1-FLTTH.ts
  4. Format                                   : MPEG-TS
  5. File size                                : 5.96 GiB
  6. Duration                                 : 1 h 41 min
  7. Overall bit rate mode                    : Variable
  8. Overall bit rate                         : 8 414 kb/s

  9. Video
  10. ID                                       : 256 (0x100)
  11. Menu ID                                  : 1 (0x1)
  12. Format                                   : AVC
  13. Format/Info                              : Advanced Video Codec
  14. Format profile                           : High@L4
  15. Format settings                          : CABAC / 2 Ref Frames
  16. Format settings, CABAC                   : Yes
  17. Format settings, RefFrames               : 2 frames
  18. Format settings, GOP                     : M=3, N=12
  19. Codec ID                                 : 27
  20. Duration                                 : 1 h 41 min
  21. Bit rate                                 : 7 546 kb/s
  22. Width                                    : 1 920 pixels
  23. Height                                   : 1 080 pixels
  24. Display aspect ratio                     : 16:9
  25. Frame rate                               : 25.000 FPS
  26. Color space                              : YUV
  27. Chroma subsampling                       : 4:2:0
  28. Bit depth                                : 8 bits
  29. Scan type                                : Interlaced
  30. Scan type, store method                  : Separated fields
  31. Scan order                               : Top Field First
  32. Bits/(Pixel*Frame)                       : 0.146
  33. Stream size                              : 5.35 GiB (90%)

  34. Audio
  35. ID                                       : 257 (0x101)
  36. Menu ID                                  : 1 (0x1)
  37. Format                                   : AC-3
  38. Format/Info                              : Audio Coding 3
  39. Codec ID                                 : 129
  40. Duration                                 : 1 h 41 min
  41. Bit rate mode                            : Constant
  42. Bit rate                                 : 448 kb/s
  43. Channel(s)                               : 6 channels
  44. Channel positions                        : Front: L C R, Side: L R, LFE
  45. Sampling rate                            : 48.0 kHz
  46. Frame rate                               : 31.250 FPS (1536 SPF)
  47. Bit depth                                : 16 bits
  48. Compression mode                         : Lossy
  49. Delay relative to video                  : -200 ms
  50. Stream size                              : 325 MiB (5%)
  51. Language                                 : English
  52. Service kind                             : Complete Main

  53. Menu
  54. ID                                       : 4096 (0x1000)
  55. Menu ID                                  : 1 (0x1)
  56. Duration                                 : 1 h 41 min
  57. List                                     : 256 (0x100) (AVC) / 257 (0x101) (AC-3, English)
  58. Language                                 :  / English
  59. Service name                             : CCTV1
  60. Service provider                         : BGCTV
  61. Service type                             : user defined

复制代码
节目简介:
    “人间亲情最贵,儿女孝心最美”。中央广播电视总台大型公益活动《2018众里寻你——寻找最美孝心少年颁奖典礼》,于2018年11月25日20:06在央视综合频道和少儿频道同时播出。来自全国的十位最美孝心少年亮相央视舞台,带着他们的感人故事与观众见面。
    李新颖、高梓渊、李小燕、周雨杉、吴昊洋、覃可欣、霍培鑫、李婧源、隋翼远、陈坤阳和陈宗阳姐弟等10位(组)孝心少年从1258余名候选者中推选而出,最终获得“最美孝心少年”称号。节目在阳光向上、充满希望的总基调中讲述10位(组)“最美孝心少年”孝老爱亲的感人故事,弘扬中华民族传统美德。


下载地址:
https://pan.baidu.com/s/1KYetJF9qWOr3IE6zxgxM9Q

本帖子中包含更多资源

您需要 登录 才可以下载或查看,没有帐号?立即注册  

x

举报

回复

1 个评论

您需要登录后才可以回帖 登录 | 立即注册  

本版积分规则

高清剧集推荐

更多

高清MV/综艺

更多

客服中心

400-800-8888 周一至周日 8:30-20:30 仅收市话费

关注我们

  • 手机客户端
  • 关注官方微信
关闭

站长推荐上一条 /1 下一条

关于我们
关于我们
友情链接
联系我们
帮助中心
网友中心
购买须知
支付方式
服务支持
资源下载
售后服务
定制流程
关注我们
官方微博
官方空间
官方微信
快速回复 返回顶部 返回列表