开启左侧

少女时代小分队Oh!GG - Lil Touch (BUGS)[1080/MP4/764M/百度云]

[复制链接]
1260 27

马上注册,结交更多高清迷友,分享更多资源,让你轻松玩转社区。

您需要 登录 才可以下载或查看,没有帐号?立即注册  

x
本帖最后由 RunningMan 于 2018-9-9 18:13 编辑



少女时代-Oh! GG专辑介绍:소녀시대-Oh!GG 싱글 <몰랐니 (Lil’ Touch)>


(주) S.M. ENTERTAINMENT

www.smtown.com
Introduce
Queen of Queen少女时代-Oh!GG单曲《懂不懂》9月5日正式公开!

少女时代-Oh!GG(SM ENTERTAINMENT所属)在9月5日正式发表单曲《懂不懂 (Lil’ Touch)’》。

太妍、SUNNY、孝渊、俞利和允儿参与的少女时代-Oh!GG单曲《懂不懂 (Lil’ Touch)’》将在9月5日通过各种音乐平台公开,本次专辑收录主打曲《懂不懂 (Lil’ Touch)’》和《休止符 (Fermata)》具相反魅力的2首新曲,预定会引发全球音乐粉丝们的热烈反响。

少女时代-Oh!GG是每次发表的歌曲延续大热步伐,在全球引起女团热潮的K-POP传奇女子组合少女时代的全新小分队。在SOLO歌手、演员、MC、DJ等各种领域展开着活跃活动的成员们即将展现绝佳默契,必将受到瞩目。

小分队名少女时代-Oh!GG结合了感叹词Oh!和少女时代英文简称GG,意味着成员会通过各种组合搭配展现丰富多彩的音乐和魅力吸引世界粉丝,同时还让人联想到相似发音,有“无可挑剔,精明干练”之意的韩语标准语“OJIDA”,有趣又融入成员们意见而诞生的小分队名值得注目。

徘徊耳边的少女时代-Oh!GG的咒语!中毒性极强的主打曲《懂不懂 (Lil’ Touch)’》

主打曲《懂不懂 (Lil’ Touch)’》是一首从歌曲导入登场的中毒性极强的副歌和有节奏又活跃的构成让人印象深刻的快速Pop歌曲。描写犹如在玩捉迷藏互相追赶的歌词打造出紧张的氛围,凸显成员们多彩迷人音色的中低音和爽快的高音,让大家足以能够体验少女时代-Oh!GG独有魅力。

收录曲《休止符 (Fermata)》是一首结合Acoustic吉他和电子贝斯展现新鲜感的中速Pop歌曲。歌词描写了“在没有喘息时间、只能不断直前的当下时代,休息一刻回顾真正的自己 。”的信息,献上正能量。这首歌曲作为少女时代-Oh!GG治愈旅行综艺《GIRLS FOR REST》的主题曲,倍增节目魅力。

少女时代-Oh!GG的单曲《懂不懂 (Lil’ Touch)》为想要收藏的粉丝特别制成Kino专辑,在9月5日正式发售。







  1. General
  2. Format                         : MPEG-4
  3. Format profile                 : Base Media / Version 2
  4. Codec ID                       : mp42 (mp42/mp41)
  5. File size                      : 764 MiB
  6. Duration                       : 3 min 30 s
  7. Overall bit rate mode          : Variable
  8. Overall bit rate               : 30.5 Mb/s
  9. Encoded date                   : UTC 2018-09-05 07:43:10
  10. Tagged date                    : UTC 2018-09-05 07:43:17
  11. TIM                            : 00:00:00:00
  12. TSC                            : 24000
  13. TSZ                            : 1001

  14. Video
  15. ID                             : 1
  16. Format                         : AVC
  17. Format/Info                    : Advanced Video Codec
  18. Format profile                 : Main@L4.1
  19. Format settings                : CABAC / 4 Ref Frames
  20. Format settings, CABAC         : Yes
  21. Format settings, ReFrames      : 4 frames
  22. Codec ID                       : avc1
  23. Codec ID/Info                  : Advanced Video Coding
  24. Duration                       : 3 min 30 s
  25. Bit rate                       : 30.2 Mb/s
  26. Width                          : 1 920 pixels
  27. Height                         : 1 080 pixels
  28. Display aspect ratio           : 16:9
  29. Frame rate mode                : Constant
  30. Frame rate                     : 23.976 (24000/1001) FPS
  31. Color space                    : YUV
  32. Chroma subsampling             : 4:2:0
  33. Bit depth                      : 8 bits
  34. Scan type                      : Progressive
  35. Bits/(Pixel*Frame)             : 0.606
  36. Stream size                    : 755 MiB (99%)
  37. Language                       : English
  38. Encoded date                   : UTC 2018-09-05 07:43:10
  39. Tagged date                    : UTC 2018-09-05 07:43:10
  40. Color range                    : Limited
  41. Color primaries                : BT.709
  42. Transfer characteristics       : BT.709
  43. Matrix coefficients            : BT.709

  44. Audio
  45. ID                             : 2
  46. Format                         : AAC
  47. Format/Info                    : Advanced Audio Codec
  48. Format profile                 : LC
  49. Codec ID                       : mp4a-40-2
  50. Duration                       : 3 min 30 s
  51. Source duration                : 3 min 30 s
  52. Bit rate mode                  : Variable
  53. Bit rate                       : 318 kb/s
  54. Maximum bit rate               : 393 kb/s
  55. Channel(s)                     : 2 channels
  56. Channel positions              : Front: L R
  57. Sampling rate                  : 44.1 kHz
  58. Frame rate                     : 43.066 FPS (1024 SPF)
  59. Compression mode               : Lossy
  60. Stream size                    : 7.95 MiB (1%)
  61. Source stream size             : 7.95 MiB (1%)
  62. Language                       : English
  63. Encoded date                   : UTC 2018-09-05 07:43:10
  64. Tagged date                    : UTC 2018-09-05 07:43:10
复制代码
游客,如果您要查看本帖隐藏内容请回复



举报

回复

27 个评论

您需要登录后才可以回帖 登录 | 立即注册  

本版积分规则

高清剧集推荐

更多

高清MV/综艺

更多

客服中心

400-800-8888 周一至周日 8:30-20:30 仅收市话费

关注我们

  • 手机客户端
  • 关注官方微信
关闭

站长推荐上一条 /1 下一条

关于我们
关于我们
友情链接
联系我们
帮助中心
网友中心
购买须知
支付方式
服务支持
资源下载
售后服务
定制流程
关注我们
官方微博
官方空间
官方微信
快速回复 返回顶部 返回列表