开启左侧

朴孝敏(T-ara) - MANGO (Bugs)[1080/MP4/736M/百度云]

[复制链接]
541 15

马上注册,结交更多高清迷友,分享更多资源,让你轻松玩转社区。

您需要 登录 才可以下载或查看,没有帐号?立即注册  

x


专辑介绍:

효민의 새로운 앨범은? Yellow ‘Mango’!

효민 세번째 앨범이자, 첫 번째 Digital Single 전격 공개!

- 효민이 전하는 첫 번째 컬러스토리 ‘Yellow’

긴 기다림의 끝에 효민의 통산 세번째 앨범이자, 첫번째 디지털 싱글 앨범이 드디어 공개 되었다. 그 동안 효민은 ‘Nice Body(feat. 로꼬)’를 타이틀로 한 [Make Up]과 ‘Sketch’를 타이틀로 한 [Sketch]라는 두 장의 미니 앨범을 통해서 다양한 컨셉과 자작곡을 포함한 여러 장르의 곡들을 선 보이며 차세대 여자 솔로 가수로서의 가능성을 충분히 보여줘왔다.

이번 디지털 싱글 앨범은 여러가지 면에서 이전에 발매한 앨범들과 차별화 되어있다. 우선 홀로서기 후 첫 번 째 앨범 이라는 점, 진정한 ‘효민다움’이 무엇인지 분명히 보여준다는 점, 그리고 무엇보다 주목해야 할 점은 ‘컬러’를 통한 표현법이다. 효민은 이번 앨범을 시작으로 ‘컬러’를 통해서 그녀만의 컨셉을 표현할 예정으로, 그 첫번째 시작이 노란색을 테마로하는 ’Mango’ 다. 앞으로 발매되는 곡과 앨범은 ‘Mango’의 ‘Yellow’처럼 특정 컬러로 표현될 것이라 전했다.

타이틀 곡 "Mango"는 미니멀한 신스 사운드 기반의 팝 곡으로, 808 베이스와 유니크한 멜로디 라인이 어우러져 독특한 매력을 보여 준다. 또한 ‘Mango’의 가사는 아이디어가 독특하고 참신하다. 만난지 얼마 안된 남녀 사이의 미묘한 감정선과 복잡한 연애 심리를 과일 ‘Mango’에 비유했다는 점도 눈에 띈다. ‘Mango’의 맛과 형태의 특성을 자신에게 비유한 것도 그렇지만, 영어 ‘Mango’를 ‘Man, go!’로 중의적으로 해석한 부분이 자신을 당당하게 표현하는 요즘 세대들을 대변하는 것 같아 짜릿하고 속 시원하다.

‘Mango’는 태연 ‘FINE’, EXO ‘Ko Ko Bop’, 레드벨벳 ‘PowerUp’ 등 SM엔터테인먼트 대표 아이돌의 음악과 트와이스 ‘Dance The Night Away’ 를 작업한 유명퍼블리셔가 프로듀싱 해서 화제가 되었으며, 레드벨벳 ‘빨간 맛’, 태연 ‘FINE’ 등의 뮤직비디오를 연출한 감독님이 메가폰을 잡아 감각적인 영상미와 위트 넘치는 뮤직비디오를 탄생 시켰다. 효민은 디지털 싱글 ‘Mango’ 에 이어, 올 하반기 내에 새로운 앨범을 추가로 발매 하여 또 다른 컬러 테마도 공개할 계획이다. 그리고 다양한 컬러 테마를 하나로 엮는 앨범, ’Color Variation’ 도 준비하고 있다는 전언. 앞으로 그녀가 그려 나갈 큰 그림들이 매우 기대된다.





  1. General
  2. Format                         : MPEG-4
  3. Format profile                 : Base Media / Version 2
  4. Codec ID                       : mp42 (mp42/mp41)
  5. File size                      : 737 MiB
  6. Duration                       : 3 min 11 s
  7. Overall bit rate mode          : Variable
  8. Overall bit rate               : 32.2 Mb/s
  9. Encoded date                   : UTC 2018-09-11 16:16:25
  10. Tagged date                    : UTC 2018-09-11 16:16:35
  11. TIM                            : 00:00:00:00
  12. TSC                            : 24000
  13. TSZ                            : 1001

  14. Video
  15. ID                             : 1
  16. Format                         : AVC
  17. Format/Info                    : Advanced Video Codec
  18. Format profile                 : Main@L4.2
  19. Format settings                : CABAC / 3 Ref Frames
  20. Format settings, CABAC         : Yes
  21. Format settings, ReFrames      : 3 frames
  22. Format settings, GOP           : M=4, N=24
  23. Codec ID                       : avc1
  24. Codec ID/Info                  : Advanced Video Coding
  25. Duration                       : 3 min 11 s
  26. Source duration                : 3 min 11 s
  27. Bit rate                       : 32.1 Mb/s
  28. Width                          : 1 920 pixels
  29. Height                         : 1 080 pixels
  30. Display aspect ratio           : 16:9
  31. Frame rate mode                : Variable
  32. Frame rate                     : 23.976 (24000/1001) FPS
  33. Minimum frame rate             : 23.976 FPS
  34. Maximum frame rate             : 24.000 FPS
  35. Standard                       : NTSC
  36. Color space                    : YUV
  37. Chroma subsampling             : 4:2:0
  38. Bit depth                      : 8 bits
  39. Scan type                      : Progressive
  40. Bits/(Pixel*Frame)             : 0.645
  41. Stream size                    : 733 MiB (99%)
  42. Source stream size             : 733 MiB (99%)
  43. Language                       : English
  44. Encoded date                   : UTC 2018-09-11 16:16:25
  45. Tagged date                    : UTC 2018-09-11 16:16:25
  46. Color range                    : Limited
  47. mdhd_Duration                  : 191733

  48. Audio
  49. ID                             : 2
  50. Format                         : AAC
  51. Format/Info                    : Advanced Audio Codec
  52. Format profile                 : LC
  53. Codec ID                       : mp4a-40-2
  54. Duration                       : 3 min 11 s
  55. Source duration                : 3 min 11 s
  56. Bit rate mode                  : Variable
  57. Bit rate                       : 192 kb/s
  58. Maximum bit rate               : 300 kb/s
  59. Channel(s)                     : 2 channels
  60. Channel positions              : Front: L R
  61. Sampling rate                  : 48.0 kHz
  62. Frame rate                     : 46.875 FPS (1024 SPF)
  63. Compression mode               : Lossy
  64. Stream size                    : 4.33 MiB (1%)
  65. Source stream size             : 4.33 MiB (1%)
  66. Language                       : English
  67. Encoded date                   : UTC 2018-09-11 16:16:25
  68. Tagged date                    : UTC 2018-09-11 16:16:25
  69. mdhd_Duration                  : 191787
复制代码
游客,如果您要查看本帖隐藏内容请回复

举报

回复

15 个评论

RunningMan  版主  发表于 2018-9-14 20:54:03  | 显示全部楼层
iamchinakira 发表于 2018-9-14 20:20
z轉眼間,孝敏也是30代了,不知道殘餘的皇冠團還能走多遠

难了!现在要么出个人solo要么就和少时一样出小分队。
您需要登录后才可以回帖 登录 | 立即注册  

本版积分规则

高清剧集推荐

更多

高清MV/综艺

更多

客服中心

400-800-8888 周一至周日 8:30-20:30 仅收市话费

关注我们

  • 手机客户端
  • 关注官方微信
关闭

站长推荐上一条 /1 下一条

关于我们
关于我们
友情链接
联系我们
帮助中心
网友中心
购买须知
支付方式
服务支持
资源下载
售后服务
定制流程
关注我们
官方微博
官方空间
官方微信
快速回复 返回顶部 返回列表