开启左侧

IU - BBIBBI [2160/MP4/422M/百度云]

[复制链接]
330 3

马上注册,结交更多高清迷友,分享更多资源,让你轻松玩转社区。

您需要 登录 才可以下载或查看,没有帐号?立即注册  

x


IU专辑介绍:
아이유 디지털 싱글 [삐삐]
“모두들 안녕. 내 걱정은 마세요. 난 언제나 잘해 나갈 테니까”
올 해로 꼭 데뷔 10주년을 맞이한 아이유가 디지털 싱글 ‘삐삐’를 발표한다.

아이유의 10주년을 기념해 10월 10일 발표된 디지털 싱글 ‘삐삐’는, 아이유가 데뷔 이후 처음으로 도전하는 Alternative R&B 스타일의 곡으로, 관계에 있어 무례하게 선을 넘는 사람들에게 던지는 유쾌하고 간결한 경고의 메시지를 담고 있다. 타인을 자신만의 기준으로 통제하거나 규정짓지 않는, 동등하고 독립적인 개개인 간의 건강한 유대관계가 어느 때보다 중요시 되는 요즘, 지금을 사는 모든 현대인들의 이야기가 될 수 있는 곡이다.

클래식한 정통 발라드곡 ‘미아’를 통해 열여섯의 어린 나이로 데뷔한 아이유는, 지난 10년 간 장르의 경계를 뛰어넘는 음악적 역량과 한계를 모르는 다채로운 매력으로, 현 가요계에 유일무이한 뮤지션이자 아티스트로서 놀라운 성장을 거듭해왔다.

10년이라는 시간의 무게처럼 깊이 있는 싱어송라이터 겸 프로듀서로도 점차 진화하고 있는 아이유가, 직접 프로듀싱과 작사에 참여한 이번 싱글 ‘삐삐’는, 여전히 보여줄 것이 무궁무진한 그녀의 팔레트처럼 대중들로 하여금 아이유의 또 다른 10년을 기대케 해준다.






  1. <font size="1">General
  2. Format                         : MPEG-4
  3. Format profile                 : Base Media
  4. Codec ID                       : isom (isom/iso2/avc1/mp41)
  5. File size                      : 423 MiB
  6. Duration                       : 3 min 28 s
  7. Overall bit rate               : 17.0 Mb/s
  8. Writing application            : EX1.2.3(C1.0.5)

  9. Video
  10. ID                             : 1
  11. Format                         : AVC
  12. Format/Info                    : Advanced Video Codec
  13. Format profile                 : High@L5.1
  14. Format settings                : CABAC / 3 Ref Frames
  15. Format settings, CABAC         : Yes
  16. Format settings, ReFrames      : 3 frames
  17. Codec ID                       : avc1
  18. Codec ID/Info                  : Advanced Video Coding
  19. Duration                       : 3 min 28 s
  20. Bit rate                       : 16.8 Mb/s
  21. Width                          : 3 840 pixels
  22. Height                         : 2 160 pixels
  23. Display aspect ratio           : 16:9
  24. Frame rate mode                : Constant
  25. Frame rate                     : 23.976 (23976/1000) FPS
  26. Color space                    : YUV
  27. Chroma subsampling             : 4:2:0
  28. Bit depth                      : 8 bits
  29. Scan type                      : Progressive
  30. Bits/(Pixel*Frame)             : 0.085
  31. Stream size                    : 418 MiB (99%)
  32. Color range                    : Limited
  33. Color primaries                : BT.709
  34. Transfer characteristics       : BT.709
  35. Matrix coefficients            : BT.709

  36. Audio
  37. ID                             : 2
  38. Format                         : AAC
  39. Format/Info                    : Advanced Audio Codec
  40. Format profile                 : LC
  41. Codec ID                       : mp4a-40-2
  42. Duration                       : 3 min 28 s
  43. Bit rate mode                  : Constant
  44. Bit rate                       : 192 kb/s
  45. Channel(s)                     : 2 channels
  46. Channel positions              : Front: L R
  47. Sampling rate                  : 48.0 kHz
  48. Frame rate                     : 46.875 FPS (1024 SPF)
  49. Compression mode               : Lossy
  50. Stream size                    : 4.77 MiB (1%)
  51. Default                        : Yes
  52. Alternate group                : 1</font>
复制代码
游客,如果您要查看本帖隐藏内容请回复


举报

回复

3 个评论

您需要登录后才可以回帖 登录 | 立即注册  

本版积分规则

高清剧集推荐

更多

高清MV/综艺

更多

客服中心

400-800-8888 周一至周日 8:30-20:30 仅收市话费

关注我们

  • 手机客户端
  • 关注官方微信
关闭

站长推荐上一条 /1 下一条

关于我们
关于我们
友情链接
联系我们
帮助中心
网友中心
购买须知
支付方式
服务支持
资源下载
售后服务
定制流程
关注我们
官方微博
官方空间
官方微信
快速回复 返回顶部 返回列表