开启左侧

[ВТ下载]燔祭 Burnt.Offering.2018.1080p.AMZN.WEBRip.DD2.0.x264-CM 4.95G

[复制链接]
57 0
-->
◎译  名 燔祭 / Burnt Offering
◎片  名 Schoolhouse
◎年  代 2018
◎产  地 美国
◎类  别 惊悚 / 恐怖
◎语  言 英语
◎上映日期 2018-10-09(美国)
◎IMDb评分 5.4/10 from 26 users
◎IMDb链接 http://www.imdb.com/title/tt7600294
◎高清迷整理 http://www.hdmee.com http://www.btbtt.us/
◎片  长 73分钟
◎导  演 Steven Perez
◎编  剧 Jennifer Perez / Steven Perez
◎主  演 Scott Rosenfeld
      Paige Hullett
      Cameron Chester




◎简  介  


  As four teenage graffiti artists run from the police, they hide in an old abandoned schoolhouse. They quickly discover that someone else is already using the building for their own dark purposes.


Video
ID : 1
Format : AVC
Format/Info : Advanced Video Codec
Format profile : High@L4
Format settings : CABAC / 4 Ref Frames
Format settings, CABAC : Yes
Format settings, ReFrames : 4 frames
Format settings, GOP : M=4, N=48
Codec ID : V_MPEG4/ISO/AVC
Duration : 1 h 13 min
Bit rate mode : Constant
Bit rate : 9 487 kb/s
Nominal bit rate : 10 000 kb/s
Width : 1 920 pixels
Height : 816 pixels
Display aspect ratio : 2.35:1
Frame rate mode : Constant
Frame rate : 23.976 (24000/1001) FPS
Color space : YUV
Chroma subsampling : 4:2:0
Bit depth : 8 bits
Scan type : Progressive
Bits/(Pixel*Frame) : 0.253
Stream size : 4.89 GiB (99%)
Default : Yes
Forced : No
Color range : Limited
Color primaries : BT.709
Transfer characteristics : BT.709
Matrix coefficients : BT.709

Audio
ID : 2
Format : AAC LC
Format/Info : Advanced Audio Codec Low Complexity
Codec ID : A_AAC-2
Duration : 1 h 13 min
Bit rate : 125 kb/s
Channel(s) : 2 channels
Channel layout : L R
Sampling rate : 48.0 kHz
Frame rate : 46.875 FPS (1024 SPF)
Compression mode : Lossy
Stream size : 66.2 MiB (1%)
Title : English
Language : English
Default : Yes
Forced : No

Text
ID : 3
Format : UTF-8
Codec ID : S_TEXT/UTF8
Codec ID/Info : UTF-8 Plain Text
Duration : 1 h 10 min
Bit rate : 34 b/s
Count of elements : 615
Stream size : 18.0 KiB (0%)
Title : English [SDH]
Language : English
Default : No
Forced : No



[table=98%][/table]

本帖子中包含更多资源

您需要 登录 才可以下载或查看,没有帐号?立即注册  

x

举报

回复
您需要登录后才可以回帖 登录 | 立即注册  

本版积分规则

高清剧集推荐

更多

高清MV/综艺

更多

客服中心

400-800-8888 周一至周日 8:30-20:30 仅收市话费

关注我们

  • 手机客户端
  • 关注官方微信
关闭

站长推荐上一条 /1 下一条

关于我们
关于我们
友情链接
联系我们
帮助中心
网友中心
购买须知
支付方式
服务支持
资源下载
售后服务
定制流程
关注我们
官方微博
官方空间
官方微信
快速回复 返回顶部 返回列表