开启左侧

猛虫过江 The.Way.of.the.Bug.2018.4K.2160p.YK.WEB-DL.x265.DDP5.1-FLTTH.mp4 4.53G

[复制链接]
134 6
本帖最后由 福利发放鸡 于 2018-12-5 17:54 编辑

  1. General
  2. Complete name                            : The.Way.of.the.Bug.2018.4K.2160p.YK.WEB-DL.x265.DDP5.1-FLTTH.mp4
  3. Format                                   : MPEG-4
  4. Format profile                           : Base Media
  5. Codec ID                                 : isom (isom/iso2/mp41)
  6. File size                                : 4.53 GiB
  7. Duration                                 : 1 h 39 min
  8. Overall bit rate                         : 6 533 kb/s
  9. Writing application                      : Lavf58.22.100

  10. Video
  11. ID                                       : 1
  12. Format                                   : HEVC
  13. Format/Info                              : High Efficiency Video Coding
  14. Format profile                           : Main@L5@Main
  15. Codec ID                                 : hev1
  16. Codec ID/Info                            : High Efficiency Video Coding
  17. Duration                                 : 1 h 39 min
  18. Bit rate                                 : 6 270 kb/s
  19. Width                                    : 3 840 pixels
  20. Height                                   : 1 620 pixels
  21. Display aspect ratio                     : 2.40:1
  22. Frame rate mode                          : Constant
  23. Frame rate                               : 24.000 FPS
  24. Color space                              : YUV
  25. Chroma subsampling                       : 4:2:0
  26. Bit depth                                : 8 bits
  27. Bits/(Pixel*Frame)                       : 0.042
  28. Stream size                              : 4.35 GiB (96%)
  29. Color range                              : Limited
  30. Color primaries                          : BT.709
  31. Transfer characteristics                 : BT.709
  32. Matrix coefficients                      : BT.709

  33. Audio
  34. ID                                       : 2
  35. Format                                   : E-AC-3
  36. Format/Info                              : Enhanced Audio Coding 3
  37. Codec ID                                 : ec-3
  38. Duration                                 : 1 h 39 min
  39. Bit rate mode                            : Constant
  40. Bit rate                                 : 256 kb/s
  41. Channel(s)                               : 6 channels
  42. Channel positions                        : Front: L C R, Side: L R, LFE
  43. Sampling rate                            : 48.0 kHz
  44. Frame rate                               : 187.500 FPS (256 SPF)
  45. Bit depth                                : 16 bits
  46. Compression mode                         : Lossy
  47. Stream size                              : 182 MiB (4%)
  48. Service kind                             : Complete Main
  49. Default                                  : Yes
  50. Alternate group                          : 1

复制代码
电影简介:
    《猛虫过江》是由小沈阳执导,小沈阳、潘斌龙、宋芸桦领衔主演,MC Hotdog、胡明、金士杰等主演的喜剧电影。该片讲述东北农村青年沈福意外得知一笔巨额遗产需要自己继承,便从东北来到台北,大闹台湾黑帮社团的喜剧故事。该片于2018年6月15日在中国内地上映。

剧情简介:
    东北青年沈福(小沈阳饰)与大雷(潘斌龙饰)结识了台湾女孩静香(宋芸桦饰),沈福因此得知在台湾有一个失联多年的爷爷,而且居然是台湾黑帮头目,有大笔遗产等待自己去继承。继承人的意外出现惹恼了计划私吞沈家遗产的陈全安,沈福在面临一次次的追杀中逐渐成长,在亲情和友情的支持下,沈福最终战胜强敌。

下载地址:
https://pan.baidu.com/s/17CBr9K6tePJ3Day7fmuvIg



本帖子中包含更多资源

您需要 登录 才可以下载或查看,没有帐号?立即注册  

x

举报

回复

6 个评论

您需要登录后才可以回帖 登录 | 立即注册  

本版积分规则

高清剧集推荐

更多

高清MV/综艺

更多

客服中心

400-800-8888 周一至周日 8:30-20:30 仅收市话费

关注我们

  • 手机客户端
  • 关注官方微信
关闭

站长推荐上一条 /1 下一条

关于我们
关于我们
友情链接
联系我们
帮助中心
网友中心
购买须知
支付方式
服务支持
资源下载
售后服务
定制流程
关注我们
官方微博
官方空间
官方微信
快速回复 返回顶部 返回列表