开启左侧

[上海滩].The.Bund.1980.HDTV.1080p.H264.CHS-NGB[29.76G]

  [复制链接]
2486 69
[上海滩].The.Bund.1980.HDTV.1080p.H264.CHS-NGB    29.76G



◎译  名 上海滩
◎片  名 上海灘
◎年  代 1980
◎国  家 香港
◎类  别 剧情/爱情
◎语  言 粤语
◎上映日期 1980-03-10(香港)
◎IMDb评分  8.6/10 from 180 users
◎IMDb链接  http://www.imdb.com/title/tt0086298/
◎豆瓣评分 8.9/10 from 11,428 users
◎豆瓣链接 https://movie.douban.com/subject/1299645/
◎集  数 25
◎片  长 45分钟
◎导  演 招振强 Chun Keung Chiu
◎主  演 周润发 Yun-Fat Chow
      赵雅芝 Angie Chiu
      吕良伟 Ray Lui
      刘丹 Tan Lau
      汤镇业 Ken Tong
      林建明 Meg Lam
      廖启智 Kai Chi Liu
      景黛音 Mitra King Toi-Yam

◎简  介

  上海滩上龙争虎斗,仇杀漫天。大学生许文强(周润发 饰)经历过失败的学生运动后,只身来到上海,他与小贩丁力(吕良伟 饰)成为至交,并在同学方艳云的帮助下,混入黑帮,并凭借自己的勇谋成为帮派头目。上海法租界大亨冯敬尧看中许文强的才干,想招其至门下,被文强婉言谢绝。许文强偶然救了冯敬尧之女冯程程(赵雅芝 饰),赢得其爱慕。在一次帮派纠纷中,许文强与丁力走投无路,投靠了冯敬尧。程程对文强紧追不舍,终于打动了他,两人计划结婚。此时,许文强发现了冯敬尧勾结日本人卖国,几经思索,他选择了背叛冯敬尧杀死日本人。为了躲避冯敬尧的追杀,许文强逃到香港,遇上成叔一家,决心过平静日子。程程追到香港,引来了冯敬尧的爪牙,成叔一家被害。许文强返回上海,开始复仇计划。程程求文强离开和她一起远走高飞,但被拒绝,失望的她嫁给一片痴心的丁力。许文强在丁力的帮助下成功复仇后,他决心去找远走法国的程程,却葬身在日本人的枪林弹雨之中。

  1. General

  2. Complete name                  : [上海滩].The.Bund.EP01.1980.HDTV.1080p.H264.CHS-NGB.mkv

  3. Format                         : Matroska

  4. Format version                 : Version 2

  5. File size                      : 1.04 GiB

  6. Duration                       : 37mn 48s

  7. Overall bit rate               : 3 949 Kbps

  8. Writing application            : libmatroska 1.3.0

  9. Writing library                : SolveigMM Matroska Muxer Version 1.0.1208.20



  10. Video

  11. ID                             : 1

  12. Format                         : AVC

  13. Format/Info                    : Advanced Video Codec

  14. Format profile                 : High@L4

  15. Format settings, CABAC         : No

  16. Format settings, ReFrames      : 1 frame

  17. Codec ID                       : V_MPEG4/ISO/AVC

  18. Duration                       : 37mn 48s

  19. Bit rate                       : 3 742 Kbps

  20. Width                          : 1 920 pixels

  21. Height                         : 1 080 pixels

  22. Display aspect ratio           : 16:9

  23. Frame rate mode                : Constant

  24. Frame rate                     : 29.970 fps

  25. Color space                    : YUV

  26. Chroma subsampling             : 4:2:0

  27. Bit depth                      : 8 bits

  28. Scan type                      : Progressive

  29. Bits/(Pixel*Frame)             : 0.060

  30. Stream size                    : 1 012 MiB (95%)

  31. Language                       : English

  32. Default                        : No

  33. Forced                         : No



  34. Audio

  35. ID                             : 2

  36. Format                         : AC-3

  37. Format/Info                    : Audio Coding 3

  38. Mode extension                 : CM (complete main)

  39. Format settings, Endianness    : Big

  40. Codec ID                       : A_AC3

  41. Duration                       : 37mn 48s

  42. Bit rate mode                  : Constant

  43. Bit rate                       : 128 Kbps

  44. Channel(s)                     : 2 channels

  45. Channel positions              : Front: L R

  46. Sampling rate                  : 48.0 KHz

  47. Frame rate                     : 31.250 fps (1536 spf)

  48. Bit depth                      :  bit0

  49. Compression mode               : Lossy

  50. Stream size                    : 34.6 MiB (3%)

  51. Language                       : English

  52. Default                        : No

  53. Forced                         : No
复制代码




























BT种子
游客,如果您要查看本帖隐藏内容请回复



电驴链接
游客,如果您要查看本帖隐藏内容请回复

本帖子中包含更多资源

您需要 登录 才可以下载或查看,没有帐号?立即注册  

x

举报

回复

68 个评论

您需要登录后才可以回帖 登录 | 立即注册  

本版积分规则

高清剧集推荐

更多

高清MV/综艺

更多

客服中心

400-800-8888 周一至周日 8:30-20:30 仅收市话费

关注我们

  • 手机客户端
  • 关注官方微信
关闭

站长推荐上一条 /1 下一条

关于我们
关于我们
友情链接
联系我们
帮助中心
网友中心
购买须知
支付方式
服务支持
资源下载
售后服务
定制流程
关注我们
官方微博
官方空间
官方微信
快速回复 返回顶部 返回列表